+ tradewingx.com »  :::: Bollywood Zone » Regional Movies » Regional Movies in Hindi
|- Yevadu 3 (2018 - South Hindi Dubbed) - 1CD - HDTVRip[Mp4 - AAC3(5.1Ch)]


HDFC 10% Off

Yevadu 3 (2018 - South Hindi Dubbed) - 1CD - HDTVRip[Mp4 - AAC3(5.1Ch)]

0 Members and 1 Guest are viewing this topic.

October 22, 2018, 11:59:35 PM
  • Semi Newbie
  • **
  • Topic Author
  • Thank You: 0
  • Reputation: -2
  • Activity:
    9%
  • Country: bd
  • Posts: 45
  • Topics: 45
  • Join Date: Oct 2018
  • ShareSpark Member
      Yevadu 3 (2018 - South Hindi Dubbed) -
1CD - HDTVRip[Mp4 - AAC3(5.1Ch)]   
 





Code: [Select]
General
Format                                   : MPEG-4
Format profile                           : Base Media
Codec ID                                 : isom (isom)
File size                                : 700 MiB
Duration                                 : 2 h 29 min

Video
ID                                       : 1
Format                                   : AVC
Format/Info                              : Advanced Video Codec
Format profile                           : [email protected]
Format settings                          : CABAC / 4 Ref Frames
Format settings, CABAC                   : Yes
Format settings, RefFrames               : 4 frames
Codec ID                                 : avc1
Codec ID/Info                            : Advanced Video Coding
Duration                                 : 2 h 29 min
Bit rate                                 : 525 kb/s
Maximum bit rate                         : 3 194 kb/s
Width                                    : 640 pixels
Height                                   : 272 pixels
Display aspect ratio                     : 2.35:1
Frame rate mode                          : Constant
Frame rate                               : 25.000 FPS
Color space                              : YUV
Chroma subsampling                       : 4:2:0
Bit depth                                : 8 bits
Scan type                                : Progressive
Bits/(Pixel*Frame)                       : 0.121
Stream size                              : 561 MiB (80%)

Audio
ID                                       : 2
Format                                   : AAC LC SBR
Commercial name                          : HE-AAC
Format settings                          : Explicit
Codec ID                                 : mp4a-40-2
Duration                                 : 2 h 29 min
Bit rate mode                            : Variable
Bit rate                                 : 128 kb/s
Maximum bit rate                         : 137 kb/s
Channel(s)                               : 6 channels
Channel layout                           : C L R Ls Rs LFE
Sampling rate                            : 48.0 kHz
Stream size                              : 136 MiB (19%)



  Thumbnail   






OR

OR

Share this topic on FacebookShare this topic on GoogleShare this topic on MySpaceShare this topic on TwitterShare this topic on Yahoo




Tags:
 

Related Topics

  Subject / Started by Replies Last post
0 Replies
259 Views
Last post October 12, 2018, 05:44:32 PM
by BUNGILI
0 Replies
277 Views
Last post October 13, 2018, 11:31:26 AM
by BUNGILI
0 Replies
110 Views
Last post October 20, 2018, 03:22:44 PM
by BUNGILI
0 Replies
126 Views
Last post October 20, 2018, 03:55:04 PM
by BUNGILI
0 Replies
144 Views
Last post October 23, 2018, 12:02:32 AM
by BUNGILI




Back to top
Sitemap