+ tradewingx.com »  :::: Bollywood Zone » Regional Movies » Regional Movies in Hindi
|-  Yuddham Sharanam (2018 - South Hindi Dubbed) - 1CD - HDRip[x264 - AAC3(5.1Ch)]


Amazon Fashion

Yuddham Sharanam (2018 - South Hindi Dubbed) - 1CD - HDRip[x264 - AAC3(5.1Ch)]

0 Members and 1 Guest are viewing this topic.

October 13, 2018, 11:31:26 AM
  • Semi Newbie
  • **
  • Topic Author
  • Thank You: 0
  • Reputation: -1
  • Activity:
    6.6%
  • Country: bd
  • Posts: 33
  • Topics: 33
  • Join Date: Oct 2018
  • ShareSpark Member
    Yuddham Sharanam (2018 - South Hindi Dubbed) -
1CD - HDRip[x264 - AAC3(5.1Ch)]   
 





Code: [Select]
General
Format                                   : Matroska
Format version                           : Version 4
File size                                : 700 MiB
Duration                                 : 2 h 19 min
Overall bit rate                         : 702 kb/s

Video
ID                                       : 1
Format                                   : AVC
Format/Info                              : Advanced Video Codec
Format profile                           : [email protected]
Format settings                          : CABAC / 4 Ref Frames
Format settings, CABAC                   : Yes
Format settings, RefFrames               : 4 frames
Codec ID                                 : V_MPEG4/ISO/AVC
Duration                                 : 2 h 19 min
Bit rate                                 : 572 kb/s
Width                                    : 640 pixels
Height                                   : 272 pixels
Display aspect ratio                     : 2.35:1
Frame rate mode                          : Constant
Frame rate                               : 25.000 FPS
Color space                              : YUV
Chroma subsampling                       : 4:2:0
Bit depth                                : 8 bits
Scan type                                : Progressive
Bits/(Pixel*Frame)                       : 0.131
Stream size                              : 570 MiB (82%)

Audio
ID                                       : 2
Format                                   : AAC LC SBR
Commercial name                          : HE-AAC
Format settings                          : Explicit
Codec ID                                 : A_AAC-2
Duration                                 : 2 h 19 min
Bit rate                                 : 128 kb/s
Channel(s)                               : 6 channels
Channel layout                           : C L R Ls Rs LFE
Sampling rate                            : 48.0 kHz
Stream size                              : 127 MiB (18%)


  Thumbnail   







OR

OR

Share this topic on FacebookShare this topic on GoogleShare this topic on MySpaceShare this topic on TwitterShare this topic on Yahoo




Tags:
 

Related Topics

  Subject / Started by Replies Last post
0 Replies
294 Views
Last post October 11, 2018, 10:08:06 AM
by BUNGILI
0 Replies
252 Views
Last post October 19, 2018, 03:13:56 AM
by Dr.STAR
0 Replies
54 Views
Last post October 20, 2018, 03:22:44 PM
by BUNGILI
0 Replies
60 Views
Last post October 20, 2018, 03:55:04 PM
by BUNGILI
0 Replies
31 Views
Last post October 22, 2018, 11:59:35 PM
by BUNGILI




Back to top
Sitemap