tradewingx.com

:::: Bollywood Zone => Regional Movies => Regional Movies in Hindi => Topic started by: BUNGILI on October 20, 2018, 03:22:44 PM

Title: Guru (2018 - South Hindi Dubbed) - 1CD - HDTVRip[Mp4 - AAC3(5.1Ch)]
Post by: BUNGILI on October 20, 2018, 03:22:44 PM
      Guru (2018 - South Hindi Dubbed) - 1CD -
 HDTVRip[Mp4 - AAC3(5.1Ch)]     


(http://www.keepimg.com/images/AIfx.jpg)
(http://media.giphy.com/media/xlCGc8M8XEICsfwGwG/giphy.gif)
(http://media.giphy.com/media/5aQEfVNRNbLInfqDDT/giphy.gif)
(http://media.giphy.com/media/9SIB4qH0cXbBLIisXj/giphy.gif)
Code: [Select]
General
Format                                   : MPEG-4
Format profile                           : Base Media
Codec ID                                 : isom (isom)
File size                                : 702 MiB
Duration                                 : 1 h 48 min

Video
ID                                       : 1
Format                                   : AVC
Format/Info                              : Advanced Video Codec
Format profile                           : [email protected]
Format settings                          : CABAC / 4 Ref Frames
Format settings, CABAC                   : Yes
Format settings, RefFrames               : 4 frames
Codec ID                                 : avc1
Codec ID/Info                            : Advanced Video Coding
Duration                                 : 1 h 48 min
Bit rate                                 : 771 kb/s
Maximum bit rate                         : 2 825 kb/s
Width                                    : 720 pixels
Height                                   : 312 pixels
Display aspect ratio                     : 2.35:1
Frame rate mode                          : Constant
Frame rate                               : 25.000 FPS
Color space                              : YUV
Chroma subsampling                       : 4:2:0
Bit depth                                : 8 bits
Scan type                                : Progressive
Bits/(Pixel*Frame)                       : 0.137
Stream size                              : 600 MiB (85%)

Audio
ID                                       : 2
Format                                   : AAC LC SBR
Commercial name                          : HE-AAC
Format settings                          : Explicit
Codec ID                                 : mp4a-40-2
Duration                                 : 1 h 48 min
Bit rate mode                            : Variable
Bit rate                                 : 128 kb/s
Maximum bit rate                         : 137 kb/s
Channel(s)                               : 6 channels
Channel layout                           : C L R Ls Rs LFE
Stream size                              : 99.4 MiB (14%)


  Thumbnail   
(http://www.keepimg.com/images/AIf6.jpg)
(http://www.keepimg.com/images/AIfZ.jpg)

(http://www.keepimg.com/images/download2f5cb65aed443ead.jpg)

[b][color=green][size=5]openload Download Link[/size][/color][/b]
OR
[b][color=green][size=5]indishare Download Link[/size][/color][/b]
OR
[b][color=green][size=5]bdupload Download Link[/size][/color][/b]
Sitemap